XMedia Recode 3.0.8.5 影片轉檔軟體,支援 PSVita、PSP、PS3、iPhone 等其他手機

XMediaRecode_11

XMedia Recode》是一款可以將影片格式轉換為各種行動裝置支援的影片格式,強大的地方在於它支援的影片格式非常廣泛,不管是 rm、rmvb、avi、mp4、mkv 等等,他都吃得下,另外還可以轉換 DVD / BD 影音光碟,對應的行動裝置也廣泛到不行,不管是遊戲主機 PSVita、PSP、PS3、Wii,智慧型手機 iPhone、HTC、Samsung,平板電腦 iPad、ASUS、Acer 等等,你能看到的它都支援了。

另外《XMedia Recode》也提供了幾個方便的功能,例如影片剪輯、濾鏡,讓你更輕鬆地修改影片,最重要的,它是免費的。

XMedia Recode 檔案訊息

軟體名稱:XMedia Recode
軟體版本:3.0.8.5
軟體語言:多國語言(含繁體中文)
軟體性質:免費軟體
檔案下載:官方載點MF載點webHD載點Box載點

v3.0.8.5 更新內容

輸出格式選項新增 PSVita!

XMedia Recode 使用方法

1.下載檔案後解壓縮到電腦上,然後執行 XMedia Recode。
XMediaRecode_01

2.軟體預設是英文介面的,我們先調整為繁體中文吧。
選擇「Options –> Preferences」。
XMediaRecode_02

將 Language 設定為繁體中文,按下 OK 即可完成設定。
XMediaRecode_03

3.接下來就是影音轉檔的步驟啦,這裡示範如何將影片轉檔到 PSP 上撥放。
首先一開始類別有「DVD/Blu-ray」和「影片」,我們選擇「影片」,然後開啟檔案,選擇你想轉檔的影片。
再來輸出格式那邊,選擇「PSP」,下一攔選擇「PSP H.264 480×272」,當然玩家可以自行選擇其他的。
最底下是設定影片輸出位置,也就是影片轉檔後會保存的位置。
XMediaRecode_04

4.在「視頻」項目中,「頻率控制模式」設定為「固定量化」,「量化」設定為「25」即可,這足以應付動畫類型的影片,如果是電影,建議為「21」,玩家也可以自行調整。
「幀率」將自動偵測,如果玩家發現「幀率」有誤,可以自行調整,一般動畫為「23.976」,電影為「29.97」。
XMediaRecode_05

5.「音軌1」項目中,基本保持不變,如果要自行調整,請調整紅框內的數值,其他不要動。
XMediaRecode_06

6.「濾鏡 / 預覽」項目中,「縮放模式」請設定為「Lanczos」,「音軌」和「字幕軌」(如果有的話)可以自行設定。這裡可以進行影片剪輯,進階一點的玩家,可以從解像度那欄中選擇銳化、降噪、剪裁等濾鏡進行調整。
XMediaRecode_07

字幕支援 srt、ssa、ass 等等,已發現 ass、ssa 字幕讀取有些問題,如果發生問題,請用 SrtEdit 等字幕編輯工具轉換成 srt。

7.「工作」項目,這是最後一個步驟啦,點選「增加工作」,這樣任務就添加完畢了,玩家可以繼續選擇影片來轉檔。最後按下「編碼」就可開始進行轉檔的作業了。
XMediaRecode_08

8.轉檔速度視 CPU 而定,想轉快一點最根本的方法就是…………….換一塊好點的 CPU 吧。
「CPU的優先順序」預設為「標準以下」,如果想讓 CPU 專心地轉檔,不因 CPU 處理其他軟體而降低轉檔速度,可以將此選項設定為「標準」或是「標準以上」,但不要調太高影響了系統正常運作。
XMediaRecode_09

9.轉好後就可以把影片丟到 PSP 記憶卡中的 VIDEO 資料夾下嚕。
XMediaRecode_10

421 Comments

  1. 看來是我緩存的問題
    同性質我回復了兩次
    想說我第一次沒回成功….
    造成不便還請見諒!!

    • @bk
      MKV吧,用AVS掛掛看,AVS腳本在前面的回覆裡面……
      textsub先不用填,其他都填,然後丟到XMedia Recode轉個幾秒影片出來看看有沒有字幕。
      如果字幕沒出來,用MKVExtractGUI把字幕提取出來,然後也是用AVS,這回textsub要填上字幕的位置了,然後再轉轉看,理論上這回就能有字幕出來了~~
      PS:XMedia Recode裡面的字幕選項不會告知你是否有字幕喔,要注意。
      ============
      太麻煩還是換個轉檔器吧

  2. 請問XMedia Recode要怎麼載入AVS腳本?
    去學寫好之後發現不在到哪裡可以添加腳本= =”

    • @彈珠
      你要先安裝Avisynth,安裝好後先新增文字文件,然後把腳本寫好,儲存,最後把副檔名txt改成avs,先用播放器播放這avs看看正不正常,沒問題在用XMedia Recode開啟這avs即可。

    • @威爾斯柏

      威爾斯柏: 你要先安裝Avisynth,安裝好後先新增文字文件,然後把腳本寫好,儲存,最後把副檔名txt改成avs,先用播放器播放這avs看看正不正常,沒問題在用XMedia Recode開啟這avs即可。

      又遇到問題了= =”
      轉的時候是直接載入AVS腳本去轉嗎?
      還是要ACS腳本跟影片都要載入?

      如果要轉多片腳本也要重複第一個寫上下一片名稱跟字幕嗎?
      是同樣的腳本只要載入一個就好?

      AVS腳本跟MeGUI得應該沒有分吧?

      只要撥放器正常顯示就是寫正確嗎?
      問題有點多…我一次把問題問完= =”

    • @彈珠
      忘了說,
      你前面有說到需要發個掛AVS的教學嗎?
      那你有空可以發一篇嗎?
      一堆人都有轉字幕問題但又沒幾個會寫AVS腳本@@”

    • @彈珠
      1.把AVS丟進去就可以了
      2.一部影片對應一個AVS,請不要塞多部片子在一個AVS裡面。
      3.同樣腳本載入一個….我不懂這個意思,能舉個例嗎?
      4.MeGUI是一個轉檔工具,跟AVS沒有直接關係~~
      5.只要播放器能正常播放AVS,那基本就能正常轉檔。

    • @威爾斯柏
      是可以寫在一起嗎?

      例如像
      LoadPlugin(“vsfilter.dll”)
      DirectShowSource(“影片1.mkv”,23.976,ConvertFPS=true)
      TextSub(“字幕1.ass”)

      LoadPlugin(“vsfilter.dll”)
      DirectShowSource(“影片2.mkv”,23.976,ConvertFPS=true)
      TextSub(“字幕2.ass”)

      腳本裡的LoadPlugin(“vsfilter.dll”)不是都用同一個插件轉嗎?
      那需要每一行都寫?

      變成
      LoadPlugin(“vsfilter.dll”)
      DirectShowSource(“影片1.mkv”,23.976,ConvertFPS=true)
      TextSub(“字幕1.ass”)

      DirectShowSource(“影片2.mkv”,23.976,ConvertFPS=true)
      TextSub(“字幕2.ass”)

      還是我要轉幾個就要寫相同檔數的腳本?

    • @威爾斯柏
      還好轉之前有先來問,
      不然白花一天的時間轉了= =
      轉出來試試又有問題,
      LoadPlugin(“vsfilter.dll”)
      DirectShowSource(“影片路徑”)
      TextSub(“字幕路徑”)
      請問我腳本上面有缺少啥?
      腳本試過可以正常在撥放器執行,
      我轉出來後也可以用PSP內建撥放器可以正常觀看,
      用PPA卻不能看,
      進去後該影片偵率其他都顯示0= =

    • @彈珠
      是用AVS腳本的關係嗎?
      剛又試轉了發現轉NCOP的影片直接轉影片就沒問題,
      直接轉AVS腳本含有字幕的PPA就不能看@@”

    • @彈珠
      轉檔時設定的FPS是多少??
      用播放器打開你轉好的影片,看看能不能顯示影片訊息(基本上就是一堆英文,會寫編碼器,解析度,FPS,碼率等等),把訊息整個複製過來我看看

    • @威爾斯柏
      我打開沒顯示信息,
      你要看的是這個嗎?
      D:\[01][BDrip][Big5][720×480].mp4
      General
      Complete name : D:\[01][BDrip][Big5][720×480].mp4
      Format : MPEG-4
      Format profile : Sony PSP
      Codec ID : MSNV
      File size : 131 MiB
      Duration : 24mn 37s
      Overall bit rate : 747 Kbps
      Video #1
      ID : 1
      Format : AVC
      Format/Info : Advanced Video Codec
      Format profile : Main@L3.0
      Format settings, CABAC : Yes
      Format settings, ReFrames : 2 frames
      Codec ID : avc1
      Codec ID/Info : Advanced Video Coding
      Duration : 24mn 37s
      Bit rate : 615 Kbps
      Width : 720 pixels
      Height : 480 pixels
      Display aspect ratio : 16:9
      Original display aspect ratio : 16:9
      Frame rate mode : Constant
      Frame rate : 23.976 fps
      Standard : NTSC
      Color space : YUV
      Chroma subsampling : 4:2:0
      Bit depth : 8 bits
      Scan type : Progressive
      Bits/(Pixel*Frame) : 0.074
      Stream size : 108 MiB (82%)
      Writing library : x264 core 122 r2184
      Encoding settings : cabac=1 / ref=2 / deblock=1:0:0 / analyse=0x1:0x111 / me=hex / subme=7 / psy=1 / psy_rd=1.00:0.00 / mixed_ref=0 / me_range=16 / chroma_me=1 / trellis=0 / 8x8dct=0 / cqm=0 / deadzone=21,11 / fast_pskip=1 / chroma_qp_offset=-2 / threads=6 / sliced_threads=0 / nr=0 / decimate=1 / interlaced=0 / bluray_compat=0 / constrained_intra=0 / bframes=0 / weightp=2 / keyint=230 / keyint_min=23 / scenecut=40 / intra_refresh=0 / rc=cqp / mbtree=0 / qp=25 / ip_ratio=1.40 / aq=0
      Audio #2
      ID : 2
      Format : AAC
      Format/Info : Advanced Audio Codec
      Format profile : LC
      Codec ID : 40
      Duration : 24mn 37s
      Bit rate mode : Constant
      Bit rate : 128 Kbps
      Channel(s) : 2 channels
      Channel positions : Front: L R
      Sampling rate : 48.0 KHz
      Compression mode : Lossy
      Stream size : 22.5 MiB (17%)

    • @威爾斯柏
      有網址會被審核?
      估計你會看不到= =
      內建的跟用PPA是能看了,
      但是PPA影片資訊都顯示異常這有解嗎?
      dl.dropbox.com/u/21100167/PIC/%E6%9C%AA%E5%91%BD%E5%90%8D.gif

    • @彈珠
      問題又回到原點了,
      以為問題解決了,
      重新轉過一遍發現內建正常觀看PPA不能看= =
      這是這次檔案的信息…
      H:\VIDEO\[01][BDrip][Big5][720×480].mp4
      General
      Complete name : H:\VIDEO\[01][BDrip][Big5][720×480].mp4
      Format : MPEG-4
      Format profile : Sony PSP
      Codec ID : MSNV
      File size : 131 MiB
      Duration : 24mn 37s
      Overall bit rate : 747 Kbps
      Video #1
      ID : 1
      Format : AVC
      Format/Info : Advanced Video Codec
      Format profile : Main@L3.1
      Format settings, CABAC : Yes
      Format settings, ReFrames : 2 frames
      Codec ID : avc1
      Codec ID/Info : Advanced Video Coding
      Duration : 24mn 37s
      Bit rate : 615 Kbps
      Width : 720 pixels
      Height : 480 pixels
      Display aspect ratio : 16:9
      Original display aspect ratio : 16:9
      Frame rate mode : Constant
      Frame rate : 23.976 fps
      Standard : NTSC
      Color space : YUV
      Chroma subsampling : 4:2:0
      Bit depth : 8 bits
      Scan type : Progressive
      Bits/(Pixel*Frame) : 0.074
      Stream size : 108 MiB (82%)
      Writing library : x264 core 122 r2184
      Encoding settings : cabac=1 / ref=2 / deblock=1:0:0 / analyse=0x1:0x111 / me=hex / subme=7 / psy=1 / psy_rd=1.00:0.00 / mixed_ref=0 / me_range=16 / chroma_me=1 / trellis=0 / 8x8dct=0 / cqm=0 / deadzone=21,11 / fast_pskip=1 / chroma_qp_offset=-2 / threads=6 / sliced_threads=0 / nr=0 / decimate=1 / interlaced=0 / bluray_compat=0 / constrained_intra=0 / bframes=0 / weightp=2 / keyint=230 / keyint_min=23 / scenecut=40 / intra_refresh=0 / rc=cqp / mbtree=0 / qp=25 / ip_ratio=1.40 / aq=0
      Audio #2
      ID : 2
      Format : AAC
      Format/Info : Advanced Audio Codec
      Format profile : LC
      Codec ID : 40
      Duration : 24mn 37s
      Bit rate mode : Constant
      Bit rate : 128 Kbps
      Channel(s) : 2 channels
      Channel positions : Front: L R
      Sampling rate : 48.0 KHz
      Compression mode : Lossy
      Stream size : 22.5 MiB (17%)
      是從步驟四轉檔等級去試嗎?

    • @威爾斯柏
      照圖操作有時有時可以又不能= =
      這種不確定因素要大量試很累…囧
      請問步驟4那的級別、偵率、量化是差在哪?
      數值越高越好?
      還有我嘗試調高了點去轉發現Aspect錯誤為0.0699這有關係?

    • @彈珠
      級別不要亂調整,因為PSP規定是Main@L3.0
      幀率就是fps,每秒畫格數,想必你壓的應該是動畫,所以建議23.976,這數值有意義存在,有興趣你可以上網搜尋相關資料。
      量化那部分的選項對於畫質而言是一個很重要的設定,有興趣也可以上網搜尋有關x264壓制參數。
      能否把第二次壓好,PPA可以看的影片參數貼上來我看看(就是你說影片可以播放,但資訊顯示錯誤那個)

    • 試轉太多了之前的刪了…
      我只記得是用格式工廠試的所以重轉了一個,
      H:\VIDEO\1.mp4
      General
      Complete name : H:\VIDEO\1.mp4
      Format : MPEG-4
      Format profile : Base Media / Version 2
      Codec ID : mp42
      File size : 6.18 MiB
      Duration : 1mn 31s
      Overall bit rate mode : Variable
      Overall bit rate : 566 Kbps
      Encoded date : UTC 2012-03-31 04:45:12
      Tagged date : UTC 2012-03-31 04:45:12
      Writing application : mp4creator 1.6.1d
      Video #1
      ID : 1
      Format : MPEG-4 Visual
      Format profile : Simple@L1
      Format settings, BVOP : No
      Format settings, QPel : No
      Format settings, GMC : No warppoints
      Format settings, Matrix : Default (H.263)
      Codec ID : 20
      Duration : 1mn 30s
      Bit rate mode : Variable
      Bit rate : 488 Kbps
      Maximum bit rate : 1 575 Kbps
      Width : 720 pixels
      Height : 480 pixels
      Display aspect ratio : 3:2
      Frame rate mode : Constant
      Frame rate : 24.000 fps
      Standard : NTSC
      Color space : YUV
      Chroma subsampling : 4:2:0
      Bit depth : 8 bits
      Scan type : Progressive
      Compression mode : Lossy
      Bits/(Pixel*Frame) : 0.059
      Stream size : 5.27 MiB (85%)
      Language : English
      Encoded date : UTC 2012-03-31 04:45:12
      Tagged date : UTC 2012-03-31 04:45:12
      Audio #2
      ID : 2
      Format : AAC
      Format/Info : Advanced Audio Codec
      Format profile : LC
      Codec ID : 40
      Duration : 1mn 31s
      Bit rate mode : Variable
      Bit rate : 81.9 Kbps
      Maximum bit rate : 137 Kbps
      Channel(s) : 2 channels
      Channel positions : Front: L R
      Sampling rate : 24.0 KHz
      Compression mode : Lossy
      Stream size : 916 KiB (14%)
      Language : English
      Encoded date : UTC 2012-03-31 04:45:12
      Tagged date : UTC 2012-03-31 04:45:12

    • @威爾斯柏
      這個是在你回之前用你這個程式第三次試轉的,
      這次我試了等級4跟幀率25,
      內建跟PPA都正常撥放,
      但只有PPA片長顯示有誤(20多分只撥放到1:31,怎都PPA再出問題= =)
      H:\VIDEO\1.mp4
      General
      Complete name : H:\VIDEO\1.mp4
      Format : MPEG-4
      Format profile : Sony PSP
      Codec ID : MSNV
      File size : 130 MiB
      Duration : 24mn 37s
      Overall bit rate : 741 Kbps
      Video #1
      ID : 1
      Format : AVC
      Format/Info : Advanced Video Codec
      Format profile : Main@L4.0
      Format settings, CABAC : Yes
      Format settings, ReFrames : 2 frames
      Codec ID : avc1
      Codec ID/Info : Advanced Video Coding
      Duration : 24mn 37s
      Bit rate : 608 Kbps
      Width : 720 pixels
      Height : 480 pixels
      Display aspect ratio : 16:9
      Original display aspect ratio : 16:9
      Frame rate mode : Constant
      Frame rate : 25.000 fps
      Standard : NTSC
      Color space : YUV
      Chroma subsampling : 4:2:0
      Bit depth : 8 bits
      Scan type : Progressive
      Bits/(Pixel*Frame) : 0.070
      Stream size : 107 MiB (82%)
      Writing library : x264 core 122 r2184
      Encoding settings : cabac=1 / ref=2 / deblock=1:1:1 / analyse=0x1:0x111 / me=hex / subme=7 / psy=1 / psy_rd=0.40:0.00 / mixed_ref=0 / me_range=16 / chroma_me=1 / trellis=0 / 8x8dct=0 / cqm=0 / deadzone=21,11 / fast_pskip=1 / chroma_qp_offset=-2 / threads=6 / sliced_threads=0 / nr=0 / decimate=1 / interlaced=0 / bluray_compat=0 / constrained_intra=0 / bframes=0 / weightp=2 / keyint=250 / keyint_min=25 / scenecut=40 / intra_refresh=0 / rc=cqp / mbtree=0 / qp=25 / ip_ratio=1.40 / aq=0
      Audio #2
      ID : 2
      Format : AAC
      Format/Info : Advanced Audio Codec
      Format profile : LC
      Codec ID : 40
      Duration : 24mn 37s
      Bit rate mode : Constant
      Bit rate : 128 Kbps
      Channel(s) : 2 channels
      Channel positions : Front: L R
      Sampling rate : 48.0 KHz
      Compression mode : Lossy
      Stream size : 22.5 MiB (17%)

      dl.dropbox.com/u/21100167/PIC/%E6%9C%AA%E5%91%BD%E5%90%8D1.jpg

      另外之前有試過調等級3、4跟幀率23.976、25去轉都可以,
      測試轉的影片我都刪了所以沒訊息可貼…

    • @彈珠

      彈珠: 這個是在你回之前用你這個程式第三次試轉的,這次我試了等級4跟幀率25,內建跟PPA都正常撥放,但只有PPA片長顯示有誤(20多分只撥放到1:31,怎都PPA再出問題= =)H:\VIDEO\1.mp4GeneralComplete name : H:\VIDEO\1.mp4Format : MPEG-4Format profile : Sony PSPCodec ID : MSNVFile size : 130 MiBDuration : 24mn 37sOverall bit rate : 741 KbpsVideo #1ID : 1Format : AVCFormat/Info : Advanced Video CodecFormat profile : Mainsettings, CABAC : YesFormat settings, ReFrames : 2 framesCodec ID : avc1Codec ID/Info : Advanced Video CodingDuration : 24mn 37sBit rate : 608 KbpsWidth : 720 pixelsHeight : 480 pixelsDisplay aspect ratio : 16:9Original display aspect ratio : 16:9Frame rate mode : ConstantFrame rate : 25.000 fpsStandard : NTSCColor space : YUVChroma subsampling : 4:2:0Bit depth : 8 bitsScan type : ProgressiveBits/(Pixel*Frame) : 0.070Stream size : 107 MiB (82%)Writing library : x264 core 122 r2184Encoding settings : cabac=1 / ref=2 / deblock=1:1:1 / analyse=0x1:0x111 / me=hex / subme=7 / psy=1 / psy_rd=0.40:0.00 / mixed_ref=0 / me_range=16 / chroma_me=1 / trellis=0 / 8x8dct=0 / cqm=0 / deadzone=21,11 / fast_pskip=1 / chroma_qp_offset=-2 / threads=6 / sliced_threads=0 / nr=0 / decimate=1 / interlaced=0 / bluray_compat=0 / constrained_intra=0 / bframes=0 / weightp=2 / keyint=250 / keyint_min=25 / scenecut=40 / intra_refresh=0 / rc=cqp / mbtree=0 / qp=25 / ip_ratio=1.40 / aq=0Audio #2ID : 2Format : AACFormat/Info : Advanced Audio CodecFormat profile : LCCodec ID : 40Duration : 24mn 37sBit rate mode : ConstantBit rate : 128 KbpsChannel(s) : 2 channelsChannel positions : Front: L RSampling rate : 48.0 KHzCompression mode : LossyStream size : 22.5 MiB (17%)dl.dropbox.com/u/21100167/PIC/%E6%9C%AA%E5%91%BD%E5%90%8D1.jpg另外之前有試過調等級3、4跟幀率23.976、25去轉都可以,測試轉的影片我都刪了所以沒訊息可貼…

      忘了說我有抓別人的轉好來看幀率,
      他很多轉得比我高耶(有26左右也有29那邊而且兩邊都能看@@)

    • @威爾斯柏
      縮小為480*272跟720*480的一樣嗎?
      會不會有鏡頭拉得比較遠看得比較廣的感覺?
      480*272聽說在PSP上看效果最好但720*480不是較高清嗎?
      那是有啥差?

    • @彈珠
      你轉成480*272和轉成720*480,在PSP上播放來說,感覺是一樣的。
      只是480*272可以達到點對點顯示的效果(因為PSP螢幕解析度剛好是480*272),所以算是最佳的解析度。
      720*480解析度上比480*272還高,但對於PSP來說,效果不大。

    • @威爾斯柏
      新版的出了!!
      我把電腦重灌之後目前發現又成功轉檔了(只是PPA要讀取一下),
      不過我是用新版的轉不知道這有沒有關係,
      搞了那麼多次都查不出原因就重灌= =
      謝謝你前面幫我解答,
      目前觀察轉檔成果中…

    • @威爾斯柏
      暈倒@@
      高興沒多久結果PPA又不能看= =
      想說可以請你幫我測試看看嗎@@?
      可以的話我上傳1分多的NCOP影片跟我寫的腳本給你測試…
      不然我一直試轉了好幾次都不成功= =”
      另外格式工廠跟這個畫質真的差很多嗎@@?

    • @威爾斯柏
      那我先試著找找看答案,
      轉檔的畫面尺寸是要依PSP螢幕做調整還是腳本裡為主?
      我片源是1280*720(16:9),
      720*480(4:3)在無加黑邊無變形的情況下能轉成PSP 16:9寬螢幕的嗎?
      還是只能轉成480*272(16:9?)的尺寸?

    • @彈珠
      我轉好後,PPA可以正常顯示影片訊息並播放
      測試檔:http://goo.gl/Py6sg
      裏頭有我使用的AVS腳本和轉好後的影片(480*272),只是轉檔軟體的版本我抓最新的3.0.9.0。
      轉檔軟體除了設定PSP,還有設定本文步驟四和步驟六的縮放模式,其餘不動~~

    • @彈珠
      另外畫面尺寸的問題,你可以在腳本上設定,或者轉檔軟體,或者兩個都設定,都沒問題~~
      1280*720的影片,你可以轉成720*480或者480*272,在PSP螢幕上都可以用16:9方式呈現~~

    • @威爾斯柏
      LoadPlugin(“D:\PSP程式\PSP轉檔\XMediaRecode3090\vsfilter.dll”) #這行不需要?
      DirectShowSource(“影片路徑”,ConvertFPS=true) #(,23.976,ConvertFPS=true)後面不需要這樣打?
      TextSub(“字幕路徑”) #我是轉有外掛字幕的那是要加這樣?
      ConvertToYV12() #這個不是有人說可有可無@@?
      LanczosResize(720,480)
      AddBorders(8,0,8,0) #我轉成720*480那要這樣改才對嗎?

      看過你的腳本我才知道我寫的差好多,
      原來不用像我寫得那麼複雜= =

    • @彈珠
      你如果要掛字幕,那就要LoadPlugin那行~~
      DirectShowSource就用我那方法即可,23.976啥的不用加,除非播放器播放avs檔案出現fps無法定義的錯誤訊息。
      TextSub用法正確
      ConvertToYV12()是將色彩空間轉換到YV12,看起來可有可無都沒差~~
      AddBorders(8,0,8,0)這行不用加,因為PSP已經是16:9了,除非你要轉4:3的影片,才需要加黑邊。

    • @彈珠

      彈珠: 步驟四和步驟六的縮放模式要改?那要怎麼設?

      忘了說不加黑邊的話那我要把704改成720是嘛?
      如果轉成4:3的那我前面改的加黑邊設704就是對的?

    • @彈珠
      不然這樣好了,AVS腳本中,黑邊和LanczosResize都不要加,讓XMediaRecode來設定這部分。
      如果你想壓720*480,步驟三的輸出格式就選PSP的720*480,
      步驟六的縮放模式跟文章一樣,底下有個長寬比,你調整為想要的顯示比例即可,4:3和16:9,設定完後,右邊可以撥放預覽,沒問題就轉下去~~

    • @威爾斯柏
      照你說的改了後我有試轉了是可以了,
      但這次換聲音過快影音不同步= =”
      片源沒問題,
      我發現是用AVS腳本才有這問題,
      改腳本其他影片路徑也是一樣聲音快轉,
      直接在電腦看片源又正常= =”
      那是怎麼回事?有強制把聲音調正常的指令嗎?

      題外話問一下:
      問啥我看你回的我都要等好久才看到回覆?
      你早上回的我卻剛剛10點多才看到@@”(有一直在網站F5刷新)

    • @彈珠

      彈珠: 照你說的改了後我有試轉了是可以了,但這次換聲音過快影音不同步= =”片源沒問題,我發現是用AVS腳本才有這問題,改腳本其他影片路徑也是一樣聲音快轉,直接在電腦看片源又正常= =”那是怎麼回事?有強制把聲音調正常的指令嗎?題外話問一下:問啥我看你回的我都要等好久才看到回覆?你早上回的我卻剛剛10點多才看到@@”(有一直在網站F5刷新)

      漏掉補充一個,
      我用你示範的腳本也一樣聲音快轉影音不同步= =”

    • @彈珠
      能否貼上片源和轉好的影片之影片訊息,就是可以看影片解析度、編碼氣、碼率、fps 等等之類的。
      =============
      我確實10點多才回,所以10點多才看的到很正常吧??

    • @威爾斯柏
      是喔,
      只有寫時間10點多我以為是早上的10點多,
      看你好幾個都早上才回@@

      這是轉好的聲音問題檔…
      General
      Complete name :影片
      Format : MPEG-4
      Format profile : Sony PSP
      Codec ID : MSNV
      File size : 103 MiB
      Duration : 24mn 37s
      Overall bit rate mode : Variable
      Overall bit rate : 585 Kbps
      Video #1
      ID : 1
      Format : AVC
      Format/Info : Advanced Video Codec
      Format profile : Main@L3.0
      Format settings, CABAC : Yes
      Format settings, ReFrames : 2 frames
      Codec ID : avc1
      Codec ID/Info : Advanced Video Coding
      Duration : 24mn 37s
      Bit rate : 495 Kbps
      Width : 720 pixels
      Height : 480 pixels
      Display aspect ratio : 16:9
      Original display aspect ratio : 16:9
      Frame rate mode : Constant
      Frame rate : 23.976 fps
      Standard : NTSC
      Color space : YUV
      Chroma subsampling : 4:2:0
      Bit depth : 8 bits
      Scan type : Progressive
      Bits/(Pixel*Frame) : 0.060
      Stream size : 87.1 MiB (85%)
      Writing library : x264 core 122 r2184
      Encoding settings : cabac=1 / ref=2 / deblock=1:0:0 / analyse=0x1:0x111 / me=hex / subme=7 / psy=1 / psy_rd=1.00:0.00 / mixed_ref=0 / me_range=16 / chroma_me=1 / trellis=0 / 8x8dct=0 / cqm=0 / deadzone=21,11 / fast_pskip=1 / chroma_qp_offset=-2 / threads=6 / sliced_threads=0 / nr=0 / decimate=1 / interlaced=0 / bluray_compat=0 / constrained_intra=0 / bframes=0 / weightp=2 / keyint=230 / keyint_min=23 / scenecut=40 / intra_refresh=0 / rc=cqp / mbtree=0 / qp=27 / ip_ratio=1.40 / aq=0
      Audio #2
      ID : 2
      Format : AAC
      Format/Info : Advanced Audio Codec
      Format profile : LC
      Codec ID : 40
      Duration : 24mn 37s
      Duration_LastFrame : -9ms
      Bit rate mode : Variable
      Bit rate : 86.5 Kbps
      Maximum bit rate : 128 Kbps
      Channel(s) : 2 channels
      Channel positions : Front: L R
      Sampling rate : 48.0 KHz
      Compression mode : Lossy
      Stream size : 15.2 MiB (15%)

    • @威爾斯柏
      這是聲音正常的片源檔…
      General
      Complete name :片源 Nogizaka_haruka_no_himitsu1+2][12+12+SP][BDRIP][X264_AAC][1280X720]\[Nogizakaharuka]\[YYDM-11FANS][Nogizakaharuka][BDRip][01][X264_AAC][1280X720].mp4
      Format : MPEG-4
      Format profile : Base Media
      Codec ID : isom
      File size : 171 MiB
      Duration : 24mn 37s
      Overall bit rate mode : Variable
      Overall bit rate : 969 Kbps
      Encoded date : UTC 2010-09-12 02:20:49
      Tagged date : UTC 2010-09-12 02:20:49
      Video #1
      ID : 1
      Format : AVC
      Format/Info : Advanced Video Codec
      Format profile : High@L4.0
      Format settings, CABAC : Yes
      Format settings, ReFrames : 8 frames
      Codec ID : avc1
      Codec ID/Info : Advanced Video Coding
      Duration : 24mn 36s
      Bit rate : 839 Kbps
      Maximum bit rate : 7 939 Kbps
      Width : 1 280 pixels
      Height : 720 pixels
      Display aspect ratio : 16:9
      Frame rate mode : Constant
      Frame rate : 23.976 fps
      Color space : YUV
      Chroma subsampling : 4:2:0
      Bit depth : 8 bits
      Scan type : Progressive
      Bits/(Pixel*Frame) : 0.038
      Stream size : 148 MiB (87%)
      Title : Imported with GPAC 0.4.6-DEV (internal rev. 5)
      Writing library : x264 core 100 r1659 57b2e56
      Encoding settings : cabac=1 / ref=8 / deblock=1:0:0 / analyse=0x3:0x133 / me=umh / subme=9 / psy=1 / psy_rd=1.00:0.00 / mixed_ref=1 / me_range=16 / chroma_me=1 / trellis=2 / 8x8dct=1 / cqm=0 / deadzone=21,11 / fast_pskip=1 / chroma_qp_offset=-2 / threads=16 / sliced_threads=0 / nr=0 / decimate=1 / interlaced=0 / constrained_intra=0 / bframes=3 / b_pyramid=2 / b_adapt=1 / b_bias=0 / direct=3 / weightb=1 / open_gop=0 / weightp=2 / keyint=250 / keyint_min=25 / scenecut=40 / intra_refresh=0 / rc_lookahead=41 / rc=crf / mbtree=0 / crf=25.0 / qcomp=1.00 / qpmin=10 / qpmax=51 / qpstep=4 / vbv_maxrate=24000 / vbv_bufsize=24000 / crf_max=0.0 / ip_ratio=1.40 / pb_ratio=1.30 / aq=2:0.80 / nal_hrd=none
      Encoded date : UTC 2010-09-12 02:20:49
      Tagged date : UTC 2010-09-12 02:20:52
      Audio #2
      ID : 2
      Format : AAC
      Format/Info : Advanced Audio Codec
      Format profile : HE-AAC / LC
      Codec ID : 40
      Duration : 24mn 37s
      Bit rate mode : Variable
      Bit rate : 128 Kbps
      Maximum bit rate : 152 Kbps
      Channel(s) : 2 channels
      Channel positions : Front: L R
      Sampling rate : 48.0 KHz / 24.0 KHz
      Compression mode : Lossy
      Stream size : 22.5 MiB (13%)
      Encoded date : UTC 2010-09-12 02:20:52
      Tagged date : UTC 2010-09-12 02:20:52

    • @威爾斯柏

      威爾斯柏: 看起來沒啥問題的說,這就怪了~~內建和PPA播放都這樣??影片不透過AVS直接轉檔就沒問題了??

      像你晚上9點半回的,我非得要留言才看的到你有回(現在十點半才看到= =”)

    • @彈珠
      這是我這是轉的訊息…
      一樣是PPA有問題= =
      General
      Complete name : Format : MPEG-4
      Format profile : Sony PSP
      Codec ID : MSNV
      File size : 133 MiB
      Duration : 24mn 37s
      Overall bit rate : 755 Kbps
      Video #1
      ID : 1
      Format : AVC
      Format/Info : Advanced Video Codec
      Format profile : Main@L3.0
      Format settings, CABAC : Yes
      Format settings, ReFrames : 2 frames
      Codec ID : avc1
      Codec ID/Info : Advanced Video Coding
      Duration : 24mn 37s
      Bit rate : 624 Kbps
      Width : 720 pixels
      Height : 480 pixels
      Display aspect ratio : 16:9
      Original display aspect ratio : 16:9
      Frame rate mode : Constant
      Frame rate : 23.976 fps
      Standard : NTSC
      Color space : YUV
      Chroma subsampling : 4:2:0
      Bit depth : 8 bits
      Scan type : Progressive
      Bits/(Pixel*Frame) : 0.075
      Stream size : 110 MiB (83%)
      Writing library : x264 core 122 r2184
      Encoding settings : cabac=1 / ref=2 / deblock=1:0:0 / analyse=0x1:0x111 / me=hex / subme=7 / psy=1 / psy_rd=1.00:0.00 / mixed_ref=0 / me_range=16 / chroma_me=1 / trellis=0 / 8x8dct=0 / cqm=0 / deadzone=21,11 / fast_pskip=1 / chroma_qp_offset=-2 / threads=6 / sliced_threads=0 / nr=0 / decimate=1 / interlaced=0 / bluray_compat=0 / constrained_intra=0 / bframes=0 / weightp=2 / keyint=230 / keyint_min=23 / scenecut=40 / intra_refresh=0 / rc=cqp / mbtree=0 / qp=25 / ip_ratio=1.40 / aq=0
      Audio #2
      ID : 2
      Format : AAC
      Format/Info : Advanced Audio Codec
      Format profile : LC
      Codec ID : 40
      Duration : 24mn 37s
      Duration_LastFrame : -13ms
      Bit rate mode : Constant
      Bit rate : 128 Kbps
      Channel(s) : 2 channels
      Channel positions : Front: L R
      Sampling rate : 48.0 KHz
      Compression mode : Lossy
      Stream size : 22.5 MiB (17%)

      還有終極解碼比K-Lite_Codec_Pack_Full好?

    • @威爾斯柏

      威爾斯柏: 我是用終極解碼~~評論的問題,可能是網站緩存,我在查查看~~

      恩~謝謝@@
      不知道也沒關係這是小問題…
      一直卡在轉檔問題~”~

    • @威爾斯柏

      威爾斯柏: 我是用終極解碼~~

      終極解碼好像功能比較齊我改用看看,
      網路上教學設定一堆我不知道是不是適用,
      我電腦是系統是WIN7 64位元 4核心
      顯示卡為AMD Radeon HD 6700 Series
      我想解碼器應該跟顯示卡有關我就只列出這些…

      這邊是要怎麼設?
      img855.imageshack.us/img855/2562/61966450.jpg
      左下撥放器選擇沒有PotPlayer那我該選哪個@@?
      照這設定後只要載入AVS腳本就這樣@@”
      img577.imageshack.us/img577/8859/92707787.jpg

    • @威爾斯柏
      青蛙圖空真不穩= =
      我放我空間了,
      順序一樣,
      dl.dropbox.com/u/21100167/PIC/%E6%9C%AA%E5%91%BD%E5%90%8D1.jpg
      貌似空格沒用用字分開…
      dl.dropbox.com/u/21100167/PIC/%E6%9C%AA%E5%91%BD%E5%90%8D2.jpg

    • @威爾斯柏
      現在才能看到回覆= =”
      我是2012新年版的阿~
      90.4M不是嗎?
      dl.dropbox.com/u/21100167/PIC/2012-04-12_170257.png
      分隔用
      dl.dropbox.com/u/21100167/PIC/2012-04-12_170317.png
      還是分隔用
      dl.dropbox.com/u/21100167/PIC/2012-04-12_170330.png
      還是你有原檔或載點?
      想說跟你用一樣的應該比較不會出錯= =”

    • @彈珠
      灌 2.6.0 版就好了,真神~~
      目前轉了 1 分鐘,一切正常:http://goo.gl/8Thvd
      值得注意的是,終極解碼的解碼中心,MP4/Mov 分離器,我是選 Haali,選 LAVFilter 好像有問題~~
      ==================
      至於無法即時看到回覆的問題,可能是瀏覽器緩存的關係,請清除緩存後再試試看~~

    • @威爾斯柏
      還原重灌了好幾次果然擔心的問題出現了,
      結果檔案音頻有問題@@
      我把電腦還原用K-Lite _Codec_Pack_860_Full解碼器跟AviSynth2.6去轉2邊又可以正常看了@@”
      AviSynth2.5聲音會出問題我才又裝2.6的試試= =
      先維持這樣終極解碼等出問題在試不然怕移除後再裝又不行了= =”
      話說我還原前用終極解碼不能讀AVS腳本,
      電腦今年才換得配備也中上想說怎會有一堆問題…囧”

    • @彈珠
      哈哈,我還沒這麼專業可以到分析影片訊息的地步,先暫時這樣~~
      音頻的部分,應該是調用的解碼器不太一樣,所以怪怪的~~
      調整MP4/Mov 分離器的原因是轉檔器載入avs文件的時候,DirectShowSource無法打開影片檔….

    • @威爾斯柏
      看來PPA對編碼很嚴格,
      第1話成功高興太早就轉其他話結果PPA裡全數陣亡= =
      既然音頻有問題就先別用PPA了,
      之前你說格式工廠要維持跟XMedia Recode一樣畫質要另外改設置那要怎麼改?
      檔案大一點沒關係,
      或是還有其他內嵌字幕的軟體嗎?

    • @彈珠

      彈珠: 看來PPA對編碼很嚴格,第1話成功高興太早就轉其他話結果PPA裡全數陣亡= =既然音頻有問題就先別用PPA了,之前你說格式工廠要維持跟XMedia Recode一樣畫質要另外改設置那要怎麼改?檔案大一點沒關係,或是還有其他內嵌字幕的軟體嗎?

      對了忘了舊版是要幾版才支援呢?

    • @威爾斯柏
      轉檔是沒啥大問題了,
      可是怎麼轉出來變得有黑邊有的沒黑邊?
      我轉同樣是720*480的MKV,
      有黑邊的1-2集的片源是712*476,
      但是我轉704*396的NCOP就是全螢幕720*480的,
      在影片比例不變能黑邊嗎?

    • @威爾斯柏
      電腦上播放720*480的片源MKV檔是沒黑邊的,
      但播放轉出來要放到PSP720*480的影片是有黑邊的,
      同樣的尺寸怎會那麼怪@@?
      跟檔案類型有差?

    • @彈珠
      你是說撥放 avs 腳本沒有看到黑邊,把 avs 拿去轉,轉出來的影片有黑邊??
      這確實很妙,確定轉檔軟體中的影片大小和長寬比是否分別為720*480和16:9嗎??
      順便問一下,片源長寬比是4:3還是16:9??

    • @威爾斯柏
      是的,
      直接看片源是沒問題,
      但是在XMedia Recode預覽就有黑邊,
      下面是片源信息…
      General
      Unique ID : 244899274865186384315841008134378037942 (0xB83DE27A87A92ADC9DB07AD788DD22B6)
      Complete name : MKV片源
      Format : Matroska
      Format version : Version 1
      File size : 385 MiB
      Duration : 25mn 11s
      Overall bit rate : 2 136 Kbps
      Encoded date : UTC 2008-08-27 02:29:35
      Writing application : mkvmerge v2.2.0 (‘Turn It On Again’) built on Mar 4 2008 12:58:26
      Writing library : libebml v0.7.7 + libmatroska v0.8.1
      Video #1
      ID : 1
      Format : AVC
      Format/Info : Advanced Video Codec
      Format profile : High@L3.0
      Format settings, CABAC : Yes
      Format settings, ReFrames : 1 frame
      Codec ID : V_MPEG4/ISO/AVC
      Duration : 25mn 11s
      Bit rate : 1 300 Kbps
      Width : 720 pixels
      Height : 480 pixels
      Display aspect ratio : 16:9
      Original display aspect ratio : 3:2
      Frame rate : 23.976 fps
      Standard : NTSC
      Color space : YUV
      Chroma subsampling : 4:2:0
      Bit depth : 8 bits
      Scan type : Progressive
      Bits/(Pixel*Frame) : 0.157
      Stream size : 227 MiB (59%)
      Writing library : x264 core 61 r949M 60c4f7e
      Encoding settings : cabac=1 / ref=1 / deblock=1:0:0 / analyse=0x3:0x133 / me=hex / subme=6 / psy_rd=1.0:0.0 / brdo=0 / mixed_ref=0 / me_range=16 / chroma_me=1 / trellis=0 / 8x8dct=1 / cqm=0 / deadzone=21,11 / chroma_qp_offset=-2 / threads=3 / nr=0 / decimate=1 / mbaff=0 / bframes=0 / keyint=250 / keyint_min=25 / scenecut=40(pre) / rc=2pass / bitrate=1300 / ratetol=4.0 / rceq=’blurCplx^(1-qComp)’ / qcomp=1.00 / qpmin=10 / qpmax=51 / qpstep=4 / cplxblur=20.0 / qblur=0.5 / ip_ratio=1.40 / aq=2:1.00
      Language : Japanese
      Default : Yes
      Forced : No
      Audio #2
      ID : 2
      Format : AC-3
      Format/Info : Audio Coding 3
      Mode extension : CM (complete main)
      Codec ID : A_AC3
      Duration : 25mn 11s
      Bit rate mode : Constant
      Bit rate : 448 Kbps
      Channel(s) : 2 channels
      Channel positions : Front: L R
      Sampling rate : 48.0 KHz
      Bit depth : 16 bits
      Compression mode : Lossy
      Stream size : 80.7 MiB (21%)
      Language : Japanese
      Default : Yes
      Forced : No
      Audio #3
      ID : 3
      Format : AC-3
      Format/Info : Audio Coding 3
      Mode extension : CM (complete main)
      Codec ID : A_AC3
      Duration : 25mn 11s
      Bit rate mode : Constant
      Bit rate : 192 Kbps
      Channel(s) : 2 channels
      Channel positions : Front: L R
      Sampling rate : 48.0 KHz
      Bit depth : 16 bits
      Compression mode : Lossy
      Stream size : 34.6 MiB (9%)
      Language : Japanese
      Default : No
      Forced : No
      Audio #4
      ID : 4
      Format : AC-3
      Format/Info : Audio Coding 3
      Mode extension : CM (complete main)
      Codec ID : A_AC3
      Duration : 25mn 11s
      Bit rate mode : Constant
      Bit rate : 192 Kbps
      Channel(s) : 2 channels
      Channel positions : Front: L R
      Sampling rate : 48.0 KHz
      Bit depth : 16 bits
      Compression mode : Lossy
      Stream size : 34.6 MiB (9%)
      Language : Japanese
      Default : No
      Forced : No
      Text #5
      ID : 5
      Format : ASS
      Codec ID : S_TEXT/ASS
      Codec ID/Info : Advanced Sub Station Alpha
      Compression mode : Lossless
      Language : Chinese
      Default : Yes
      Forced : No

    • @威爾斯柏
      這是轉出來的檔案…
      General
      Complete name :01.mp4
      Format : MPEG-4
      Format profile : Sony PSP
      Codec ID : MSNV
      File size : 96.6 MiB
      Duration : 25mn 11s
      Overall bit rate : 536 Kbps
      Video #1
      ID : 1
      Format : AVC
      Format/Info : Advanced Video Codec
      Format profile : Main@L3.0
      Format settings, CABAC : Yes
      Format settings, ReFrames : 2 frames
      Codec ID : avc1
      Codec ID/Info : Advanced Video Coding
      Duration : 25mn 11s
      Bit rate : 401 Kbps
      Width : 720 pixels
      Height : 480 pixels
      Display aspect ratio : 16:9
      Original display aspect ratio : 16:9
      Frame rate mode : Constant
      Frame rate : 29.970 fps
      Standard : NTSC
      Color space : YUV
      Chroma subsampling : 4:2:0
      Bit depth : 8 bits
      Scan type : Progressive
      Bits/(Pixel*Frame) : 0.039
      Stream size : 72.3 MiB (75%)
      Writing library : x264 core 122 r2184
      Encoding settings : cabac=1 / ref=2 / deblock=1:0:0 / analyse=0x1:0x111 / me=hex / subme=7 / psy=1 / psy_rd=1.00:0.00 / mixed_ref=0 / me_range=16 / chroma_me=1 / trellis=0 / 8x8dct=0 / cqm=0 / deadzone=21,11 / fast_pskip=1 / chroma_qp_offset=-2 / threads=6 / sliced_threads=0 / nr=0 / decimate=1 / interlaced=0 / bluray_compat=0 / constrained_intra=0 / bframes=0 / weightp=2 / keyint=290 / keyint_min=29 / scenecut=40 / intra_refresh=0 / rc=cqp / mbtree=0 / qp=25 / ip_ratio=1.40 / aq=0
      Audio #2
      ID : 2
      Format : AAC
      Format/Info : Advanced Audio Codec
      Format profile : LC
      Codec ID : 40
      Duration : 25mn 11s
      Duration_LastFrame : -1ms
      Bit rate mode : Constant
      Bit rate : 128 Kbps
      Channel(s) : 2 channels
      Channel positions : Front: L R
      Sampling rate : 48.0 KHz
      Compression mode : Lossy
      Stream size : 23.0 MiB (24%)

      這不是啥大問題,
      只是疑惑為啥都是720*480轉出來卻不同= =”

  3. 請問出現

    “0x00d7d4aa”指令參考的 “0x00000000″記憶體。該記憶體不能為”read”。

    請按 [確定] 終止程式
    請按 [取消] 進行程式偵錯

    這該怎麼辦 =.=||,以前我有想要用這個,不過也是出現這問題,因為真的沒有一款轉檔程式能轉PSVITA影片,猴大幫幫忙,感謝!

    • @威爾斯柏

      威爾斯柏: 執行後就出現這錯誤了??這問題我還真不知道怎麼一回事~~只能換台電腦試試看了~~

      用舊版的或許能解決,
      我用新版的一開始沒問題,
      載入太多要轉的檔案或閒置一會就出問題= =

  4. 一按編碼馬上顯示
    XMedia Recode.exe發生問題,必須關閉,謹此致歉。
    AppName: xmedia recode.exe AppVer:
    3.0.8.5 ModName: libswscale.dll
    ModVer: 0.0.0.0 Offset: 0001d4aa
    請問要如何解決-.-

Comments are closed.